<?xml version="1.0" standalone="no"?>
<!DOCTYPE svg PUBLIC "-//W3C//DTD SVG 1.1//EN" "http://www.w3.org/Graphics/SVG/1.1/DTD/svg11.dtd" >
<svg xmlns="http://www.w3.org/2000/svg">
<metadata>Generated by IcoMoon</metadata>
<defs>
<font id="icomoon" horiz-adv-x="1024">
<font-face units-per-em="1024" ascent="960" descent="-64" />
<missing-glyph horiz-adv-x="1024" />
<glyph unicode="&#x20;" horiz-adv-x="512" d="" />
<glyph unicode="&#xe900;" glyph-name="Arrow-down" horiz-adv-x="1365" d="M34.067 704.002c0 34.133 17.067 68.267 51.2 85.333 51.2 51.2 119.467 51.2 170.667 0l426.667-409.599 426.667 409.599c51.2 51.2 119.467 51.2 170.667 0s51.2-136.533 0-187.733l-512-512c-51.2-51.2-136.533-51.2-187.733 0l-512 512c-17.067 34.133-34.134 68.267-34.134 102.4z" />
<glyph unicode="&#xe901;" glyph-name="email" d="M727.040 38.4h-430.080c-92.16 0-143.36 0-184.32 20.48s-71.68 51.2-87.040 87.040c-25.6 46.080-25.6 97.28-25.6 189.44v225.28c0 92.16 0 143.36 20.48 184.32s51.2 71.68 87.040 87.040c46.080 25.6 97.28 25.6 189.44 25.6h430.080c92.16 0 143.36 0 184.32-20.48s71.68-51.2 87.040-87.040c25.6-46.080 25.6-97.28 25.6-189.44v-225.28c0-92.16 0-143.36-20.48-184.32s-51.2-71.68-87.040-87.040c-46.080-25.6-97.28-25.6-189.44-25.6zM102.4 529.92v-194.56c0-76.8 0-117.76 10.24-138.24s25.6-35.84 46.080-46.080c20.48-10.24 61.44-10.24 138.24-10.24h430.080c76.8 0 117.76 0 138.24 10.24s35.84 25.6 46.080 46.080c10.24 20.48 10.24 61.44 10.24 138.24v194.56c-87.040-81.92-235.52-184.32-409.6-184.32s-322.56 102.4-409.6 184.32zM107.52 668.16c46.080-51.2 215.040-220.16 404.48-220.16s358.4 168.96 404.48 220.16c0 10.24-5.12 20.48-10.24 30.72-10.24 20.48-25.6 35.84-46.080 46.080-15.36 10.24-56.32 10.24-133.12 10.24h-430.080c-76.8 0-117.76 0-138.24-10.24s-35.84-25.6-46.080-46.080c-5.12-5.12-5.12-15.36-5.12-30.72z" />
<glyph unicode="&#xe902;" glyph-name="flag" d="M213.333 21.333c-25.6 0-42.667 17.067-42.667 42.667v729.6c0 12.8 4.267 21.333 12.8 29.867s55.467 51.2 179.2 51.2c64 0 115.2-21.333 166.4-42.667 42.667-17.067 85.333-34.133 132.267-34.133 89.6 0 119.467 25.6 119.467 25.6 12.8 12.8 29.867 17.067 46.933 8.533s25.6-21.333 25.6-38.4v-460.8c0-12.8-4.267-21.333-12.8-29.867s-55.467-51.2-179.2-51.2c-64 0-115.2 21.333-166.4 42.667-42.667 17.067-85.333 34.133-132.267 34.133-55.467 0-89.6-12.8-106.667-17.067v-247.467c0-25.6-17.067-42.667-42.667-42.667zM362.667 413.867c64 0 115.2-21.333 166.4-42.667 42.667-17.067 85.333-34.133 132.267-34.133 55.467 0 89.6 12.8 106.667 17.067v371.2c-25.6-8.533-59.733-12.8-106.667-12.8-64 0-115.2 21.333-166.4 42.667-42.667 17.067-85.333 34.133-132.267 34.133-55.467 0-89.6-12.8-106.667-17.067v-371.2c25.6 8.533 59.733 12.8 106.667 12.8z" />
<glyph unicode="&#xe903;" glyph-name="heat" d="M554.667 21.333c-4.267 0-8.533 0-12.8 0-21.333 4.267-38.4 29.867-29.867 51.2 17.067 64 46.933 256-29.867 345.6-115.2 145.067-55.467 413.867-55.467 422.4 4.267 21.333 29.867 38.4 51.2 29.867 21.333-4.267 38.4-29.867 34.133-51.2 0-4.267-51.2-238.933 38.4-345.6 119.467-145.067 51.2-409.6 46.933-422.4-8.533-17.067-25.6-29.867-42.667-29.867zM768 21.333c-4.267 0-8.533 0-12.8 0-21.333 8.533-34.133 29.867-25.6 55.467 0 0 59.733 192-29.867 302.933-123.733 140.8-59.733 366.933-59.733 379.733 4.267 21.333 29.867 34.133 51.2 29.867s34.133-29.867 29.867-51.2c0 0-51.2-192 38.4-302.933 119.467-145.067 46.933-371.2 46.933-379.733-4.267-21.333-21.333-34.133-38.4-34.133zM341.333 21.333c-4.267 0-8.533 0-12.8 0-21.333 8.533-34.133 29.867-25.6 55.467 0 0 59.733 192-29.867 302.933-123.733 140.8-59.733 366.933-59.733 379.733 8.533 21.333 29.867 34.133 55.467 29.867 21.333-8.533 34.133-29.867 29.867-55.467 0 0-51.2-192 38.4-302.933 119.467-145.067 46.933-371.2 46.933-379.733-8.533-17.067-25.6-29.867-42.667-29.867z" />
<glyph unicode="&#xe904;" glyph-name="hotel" d="M896 29.867h-768c-17.067 0-34.133 12.8-34.133 34.133s12.8 34.133 34.133 34.133h51.2v699.733h-51.2c-17.067 0-34.133 17.067-34.133 34.133s17.067 34.133 34.133 34.133h768c17.067 0 34.133-12.8 34.133-34.133s-17.067-34.133-34.133-34.133h-51.2v-704h51.2c17.067 0 34.133-12.8 34.133-34.133s-17.067-29.867-34.133-29.867zM631.467 98.133h149.333v699.733h-533.333v-704h149.333v149.333h-55.467c-12.8 0-21.333 8.533-29.867 17.067-4.267 12.8-4.267 25.6 4.267 34.133 46.933 64 119.467 98.133 196.267 98.133s149.333-34.133 196.267-98.133c8.533-8.533 8.533-21.333 4.267-34.133s-17.067-17.067-29.867-17.067h-51.2v-145.067zM460.8 98.133h106.667v179.2c0 17.067 12.8 34.133 34.133 34.133v0c-51.2 29.867-119.467 29.867-170.667 0v0c17.067 0 34.133-12.8 34.133-34.133v-179.2zM704 482.133h-42.667c-17.067 0-34.133 12.8-34.133 34.133v42.667c0 17.067 12.8 34.133 34.133 34.133h42.667c17.067 0 34.133-12.8 34.133-34.133v-42.667c-4.267-21.333-17.067-34.133-34.133-34.133zM533.333 482.133h-42.667c-17.067 0-34.133 12.8-34.133 34.133v42.667c0 17.067 12.8 34.133 34.133 34.133h42.667c17.067 0 34.133-12.8 34.133-34.133v-42.667c-4.267-21.333-17.067-34.133-34.133-34.133zM362.667 482.133h-42.667c-17.067 0-34.133 12.8-34.133 34.133v42.667c0 17.067 12.8 34.133 34.133 34.133h42.667c17.067 0 34.133-12.8 34.133-34.133v-42.667c-4.267-21.333-17.067-34.133-34.133-34.133zM704 652.8h-42.667c-17.067 0-34.133 12.8-34.133 34.133v42.667c0 17.067 12.8 34.133 34.133 34.133h42.667c17.067 0 34.133-12.8 34.133-34.133v-42.667c-4.267-21.333-17.067-34.133-34.133-34.133zM533.333 652.8h-42.667c-17.067 0-34.133 12.8-34.133 34.133v42.667c0 17.067 12.8 34.133 34.133 34.133h42.667c17.067 0 34.133-12.8 34.133-34.133v-42.667c-4.267-21.333-17.067-34.133-34.133-34.133zM362.667 652.8h-42.667c-17.067 0-34.133 12.8-34.133 34.133v42.667c0 17.067 12.8 34.133 34.133 34.133h42.667c17.067 0 34.133-12.8 34.133-34.133v-42.667c-4.267-21.333-17.067-34.133-34.133-34.133z" />
<glyph unicode="&#xe905;" glyph-name="hourglass-start" d="M810.667 21.333c0 0 0 0 0 0h-640c-25.6 0-42.667 17.067-42.667 42.667s17.067 42.667 42.667 42.667h4.267c4.267 51.2 21.333 132.267 68.267 179.2 42.667 42.667 140.8 115.2 196.267 162.133-55.467 42.667-153.6 119.467-196.267 162.133-51.2 46.933-64 128-68.267 179.2h-4.267c-25.6 0-42.667 17.067-42.667 42.667s17.067 42.667 42.667 42.667h682.667c25.6 0 42.667-17.067 42.667-42.667s-17.067-42.667-42.667-42.667v0c-4.267-46.933-17.067-123.733-72.533-179.2-46.933-51.2-140.8-119.467-196.267-162.133 55.467-42.667 149.333-110.933 196.267-162.133 51.2-55.467 68.267-132.267 72.533-179.2v0c25.6 0 42.667-17.067 42.667-42.667s-17.067-42.667-42.667-42.667h-42.667c0 0 0 0 0 0zM260.267 106.667h507.733c-4.267 34.133-12.8 85.333-46.933 119.467-51.2 55.467-157.867 132.267-204.8 166.4-51.2-38.4-166.4-128-209.067-170.667-29.867-21.333-42.667-76.8-46.933-115.2zM260.267 789.333c4.267-38.4 17.067-93.867 42.667-119.467 42.667-42.667 157.867-132.267 209.067-170.667 46.933 34.133 157.867 115.2 204.8 166.4 34.133 34.133 42.667 85.333 46.933 119.467h-503.467zM640 661.333h-256c-25.6 0-42.667 17.067-42.667 42.667s17.067 42.667 42.667 42.667h256c25.6 0 42.667-17.067 42.667-42.667s-17.067-42.667-42.667-42.667z" />
<glyph unicode="&#xe906;" glyph-name="map" d="M492.8-32c-12.8 0-25.6 6.4-32 12.8l-38.4 38.4c-160 160-307.2 313.6-307.2 512 0 217.6 172.8 390.4 384 390.4s384-179.2 384-390.4c0-192-147.2-345.6-307.2-512l-38.4-38.4c-19.2-6.4-25.6-12.8-44.8-12.8zM492.8 832c-153.6 0-281.6-134.4-281.6-294.4 0-153.6 134.4-294.4 281.6-441.6l6.4-6.4 6.4 6.4c147.2 147.2 281.6 288 281.6 441.6 0 160-134.4 294.4-294.4 294.4zM492.8 396.8c-76.8 0-140.8 70.4-140.8 147.2s64 140.8 140.8 140.8c76.8 0 140.8-64 140.8-140.8s-57.6-147.2-140.8-147.2zM492.8 588.8c-25.6 0-51.2-19.2-51.2-51.2s19.2-51.2 51.2-51.2 51.2 32 51.2 57.6-19.2 44.8-51.2 44.8z" />
<glyph unicode="&#xe907;" glyph-name="map-pin-alt" d="M512 21.333c-213.333 0-426.667 64-426.667 192 0 59.733 51.2 110.933 140.8 145.067 21.333 8.533 46.933-4.267 55.467-25.6s-4.267-46.933-25.6-55.467c-59.733-21.333-85.333-46.933-85.333-64 0-34.133 119.467-106.667 341.333-106.667s341.333 72.533 341.333 106.667c0 17.067-25.6 42.667-89.6 68.267-21.333 8.533-34.133 34.133-25.6 55.467s34.133 34.133 55.467 25.6c93.867-34.133 140.8-85.333 140.8-145.067 4.267-132.267-209.067-196.267-422.4-196.267zM512 149.333c-17.067 0-29.867 8.533-38.4 25.6-21.333 42.667-59.733 81.067-102.4 123.733-72.533 68.267-157.867 153.6-157.867 277.333 0 166.4 132.267 298.667 298.667 298.667s298.667-132.267 298.667-298.667c0-123.733-85.333-209.067-157.867-281.6-42.667-42.667-81.067-81.067-102.4-123.733-8.533-12.8-21.333-21.333-38.4-21.333zM512 789.333c-119.467 0-213.333-93.867-213.333-213.333 0-89.6 64-153.6 132.267-221.867 29.867-25.6 55.467-55.467 81.067-85.333 25.6 29.867 51.2 59.733 81.067 85.333 68.267 68.267 132.267 132.267 132.267 221.867 0 119.467-93.867 213.333-213.333 213.333zM512 490.667c-46.933 0-85.333 38.4-85.333 85.333s38.4 85.333 85.333 85.333c46.933 0 85.333-38.4 85.333-85.333s-38.4-85.333-85.333-85.333z" />
<glyph unicode="&#xe908;" glyph-name="moon" d="M512 29.867c-230.4 0-418.133 187.733-418.133 418.133 0 170.667 102.4 324.267 260.267 384 17.067 8.533 34.133 0 42.667-17.067 4.267-8.533 4.267-12.8 0-21.333 0 0 0-4.267 0-4.267-17.067-42.667-25.6-85.333-25.6-132.267 0-192 157.867-349.867 349.867-349.867 42.667 0 85.333 8.533 128 25.6 8.533 4.267 17.067 4.267 25.6 0 17.067-4.267 25.6-25.6 17.067-38.4 0 0 0 0 0-4.267-59.733-157.867-209.067-260.267-379.733-260.267zM315.733 742.4c-93.867-64-153.6-174.933-153.6-294.4 0-192 157.867-349.867 349.867-349.867 119.467 0 230.4 59.733 294.4 157.867-25.6-4.267-51.2-8.533-81.067-8.533-230.4 0-418.133 187.733-418.133 418.133 0 21.333 4.267 51.2 8.533 76.8z" />
<glyph unicode="&#xe909;" glyph-name="phone-call" d="M788.698 47.115c-374.74 0-677.583 305.021-677.583 677.583 0 17.43 0 32.681 2.179 50.111 2.179 19.609 2.179 30.502 8.715 43.574 6.536 10.894 15.251 19.609 26.145 23.966 13.072 6.536 23.966 6.536 45.753 6.536h119.83c19.609 0 28.323 0 39.217-4.357 8.715-4.357 17.43-8.715 23.966-17.43s10.894-17.43 17.43-34.86l50.111-137.26c6.536-19.609 10.894-30.502 10.894-43.574 0-10.894-4.357-21.787-10.894-30.502-6.536-10.894-17.43-15.251-34.86-28.323l-45.753-28.323c47.932-100.221 128.545-180.834 228.766-228.766l28.323 45.753c10.894 19.609 17.43 28.323 28.323 34.86 8.715 6.536 19.609 10.894 30.502 10.894 13.072 0 23.966-2.179 43.574-10.894l137.26-50.111c17.43-6.536 26.145-10.894 34.86-17.43 6.536-6.536 13.072-15.251 17.43-23.966 4.357-10.894 4.357-19.609 4.357-39.217v-119.83c0-21.787 0-34.86-6.536-45.753-4.357-10.894-13.072-19.609-23.966-26.145s-23.966-6.536-43.574-8.715c-19.609 4.357-37.038 2.179-54.468 2.179zM193.906 816.204c-19.609 0-26.145 0-32.681-2.179-4.357-2.179-8.715-6.536-10.894-10.894-2.179-6.536-2.179-13.072-4.357-30.502 0-15.251-2.179-30.502-2.179-47.932 0-355.132 289.77-644.902 644.902-644.902 15.251 0 32.681 0 47.932 2.179 17.43 2.179 23.966 2.179 28.323 4.357s8.715 6.536 10.894 10.894c2.179 4.357 2.179 13.072 2.179 32.681v119.83c0 15.251 0 21.787-2.179 28.323-2.179 4.357-4.357 6.536-6.536 10.894-4.357 2.179-10.894 6.536-26.145 10.894l-135.081 50.111c-15.251 6.536-26.145 8.715-30.502 8.715s-8.715-2.179-13.072-4.357c-4.357-2.179-8.715-10.894-17.43-26.145l-34.86-58.826c-4.357-6.536-13.072-10.894-21.787-6.536-117.651 52.289-211.336 145.974-263.626 263.626-4.357 6.536 0 17.43 6.536 21.787l58.826 34.86c15.251 8.715 21.787 13.072 26.145 17.43 2.179 4.357 4.357 8.715 4.357 13.072 0 6.536-2.179 15.251-8.715 30.502l-50.111 137.26c-4.357 13.072-8.715 21.787-10.894 26.145-2.179 2.179-6.536 6.536-10.894 6.536-4.357 2.179-13.072 2.179-28.323 2.179h-119.83zM766.911 519.898c-8.715 0-15.251 4.357-15.251 13.072-6.536 39.217-26.145 74.077-54.468 102.4s-63.183 45.753-102.4 54.468c-8.715 2.179-15.251 10.894-13.072 19.609s10.894 15.251 19.609 13.072c45.753-8.715 84.97-30.502 117.651-63.183s54.468-74.077 63.183-117.651c2.179-8.715-4.357-17.43-13.072-19.609 0-2.179 0-2.179-2.179-2.179zM939.030 519.898c-8.715 0-15.251 6.536-15.251 15.251-8.715 82.791-45.753 161.226-104.579 220.051s-137.26 95.864-220.051 104.579c-8.715 0-15.251 8.715-15.251 17.43s8.715 15.251 17.43 15.251c89.328-10.894 174.298-50.111 239.66-115.472 63.183-63.183 104.579-148.153 115.472-237.481 0-10.894-6.536-19.609-17.43-19.609 0 0 0 0 0 0z" />
<glyph unicode="&#xe90a;" glyph-name="replay" d="M83.2 115.2c-38.4 0-64 25.6-64 64v64c0 96 0 147.2 25.6 198.4 19.2 44.8 57.6 76.8 96 96 51.2 25.6 102.4 25.6 198.4 25.6h441.6l-102.4 102.4c-25.6 25.6-25.6 64 0 89.6s64 25.6 89.6 0l211.2-211.2c0 0 0 0 0 0v0 0c0 0 0 0 0 0s0 0 0 0 0 0 0 0 0 0 0 0 0 0 0 0v0c0 0 0 0 0 0s0 0 0 0 0 0 0 0v0c0 0 0 0 0 0v0c0 0 0 0 0 0s0 0 0 0 0 0 0 0 0 0 0 0 0 0 0 0 0 0 0 0v0c0 0 0 0 0 0v0c0 0 0 0 0 0s0 0 0 0 0 0 0 0 0 0 0 0 0 0 0 0 0 0 0 0 0 0 0 0 0 0 0 0 0 0 0 0 0 0 0 0 0 0 0 0 0 0 0 0 0 0 0 0 0 0 0 0 0 0 0 0v0c0 0 0 0 0 0v0c0 0 0 0 0 0v0c0 0 0 0 0 0s0 0 0 0v0c0 0 0 0 0 0s0 0 0 0 0 0 0 0 0 0 0 0 0 0 0 0 0 0 0 0 0 0 0 0 0 0 0 0 0 0 0 0 0 0 0 0 0 0 0 0 0 0 0 0 0 0 0 0 0 0 0 0 0 0 0 0 0 0 0 0 0 0 0 0 0 0 0 0 0 0 0 0 0 0 0 0 0 0 0 0 0 0 0 0 0 0 0 0 0 0 0 0 0 0 0 0 0 0 0 0 0 0 0 0 0 0 0 0 0 0 0 0 0 0 0 0 0 0 0 0v0c0 0 0 0 0 0s0 0 0 0v0c0 0 0 0 0 0s0 0 0 0 0 0 0 0v0c0 0 0 0 0 0s0 0 0 0v0c0 0 0 0 0 0s0 0 0 0 0 0 0 0 0 0 0 0v0c0 0 0 0 0 0v0c0 0 0 0 0 0s0 0 0 0v0c0 0 0 0 0 0v0c0 0 0 0 0 0v0c0 0 0 0 0 0s0 0 0 0 0 0 0 0v0c0 0 0 0 0 0v0c0 0 0-6.4 0-6.4 0-6.4 6.4-12.8 6.4-25.6v0c0 0 0 0 0 0s0 0 0 0v0 0c0 0 0 0 0 0s0 0 0 0 0 0 0 0 0 0 0 0 0 0 0 0 0 0 0 0 0 0 0 0 0 0 0 0 0 0 0 0 0 0 0 0 0 0 0 0 0 0 0 0 0 0 0 0 0 0 0 0 0 0 0 0 0 0 0 0v0c0-6.4 0-12.8-6.4-25.6 0 0 0-6.4-6.4-6.4 0 0 0 0 0 0v0c0 0 0 0 0 0v0c0 0 0 0 0 0v0c0 0 0 0 0 0v0c0 0 0 0 0 0s0 0 0 0v0c0 0 0 0 0 0s0 0 0 0 0 0 0 0 0 0 0 0 0 0 0 0v0c0 0 0 0 0 0s0 0 0 0v0c0 0 0 0 0 0s0 0 0 0 0 0 0 0 0 0 0 0 0 0 0 0v0c0 0 0 0 0 0s0 0 0 0 0 0 0 0 0 0 0 0 0 0 0 0 0 0 0 0 0 0 0 0v0c0 0 0 0 0 0s0 0 0 0 0 0 0 0 0 0 0 0 0 0 0 0 0 0 0 0 0 0 0 0 0 0 0 0 0 0 0 0 0 0 0 0 0 0 0 0 0 0 0 0 0 0 0 0 0 0 0 0 0 0 0 0 0 0 0 0 0 0 0 0 0 0 0 0 0 0 0 0 0 0 0 0 0 0 0 0 0 0 0 0 0 0 0 0 0 0 0 0v0c0 0 0 0 0 0s0 0 0 0v0c0 0 0 0 0 0v0c0 0 0 0 0 0s0 0 0 0 0 0 0 0 0 0 0 0 0 0 0 0 0 0 0 0 0 0 0 0 0 0 0 0 0 0 0 0 0 0 0 0 0 0 0 0v0c0 0 0 0 0 0s0 0 0 0 0 0 0 0 0 0 0 0v0c0 0 0 0 0 0s0 0 0 0v0c0 0 0 0 0 0v0c0 0 0 0 0 0s0 0 0 0 0 0 0 0 0 0 0 0 0 0 0 0v0c0 0 0 0 0 0s0 0 0 0 0 0 0 0 0 0 0 0 0 0 0 0 0 0 0 0 0 0 0 0 0 0 0 0 0 0 0 0 0 0 0 0 0 0 0 0 0 0 0 0 0 0 0 0 0 0 0 0 0 0 0 0l-204.8-236.8c-25.6-25.6-64-25.6-89.6 0s-25.6 64 0 89.6l102.4 102.4h-441.6c-76.8 0-121.6 0-140.8-12.8-12.8-6.4-32-19.2-38.4-38.4-12.8-19.2-12.8-64-12.8-140.8v-64c0-32-25.6-64-64-64z" />
<glyph unicode="&#xe90b;" glyph-name="sun" d="M512 29.867c-17.067 0-34.133 12.8-34.133 34.133v42.667c0 17.067 12.8 34.133 34.133 34.133s34.133-12.8 34.133-34.133v-42.667c0-17.067-17.067-34.133-34.133-34.133zM789.333 140.8c-8.533 0-17.067 4.267-21.333 8.533l-34.133 34.133c-12.8 12.8-12.8 34.133 0 46.933s34.133 12.8 46.933 0l29.867-38.4c12.8-12.8 12.8-34.133 0-46.933-4.267-4.267-12.8-4.267-21.333-4.267zM234.667 140.8c-8.533 0-17.067 4.267-21.333 8.533-12.8 12.8-12.8 34.133 0 46.933l34.133 34.133c12.8 12.8 34.133 12.8 46.933 0s12.8-34.133 0-46.933l-38.4-34.133c-4.267-8.533-12.8-8.533-21.333-8.533zM512 243.2c-110.933 0-204.8 89.6-204.8 204.8s93.867 204.8 204.8 204.8 204.8-89.6 204.8-204.8-93.867-204.8-204.8-204.8zM512 584.533c-76.8 0-136.533-64-136.533-136.533s64-136.533 136.533-136.533 136.533 64 136.533 136.533-59.733 136.533-136.533 136.533zM896 413.867h-42.667c-17.067 0-34.133 12.8-34.133 34.133s12.8 34.133 34.133 34.133h42.667c17.067 0 34.133-12.8 34.133-34.133s-17.067-34.133-34.133-34.133zM170.667 413.867h-42.667c-17.067 0-34.133 12.8-34.133 34.133s12.8 34.133 34.133 34.133h42.667c17.067 0 34.133-12.8 34.133-34.133s-17.067-34.133-34.133-34.133zM755.2 657.067c-8.533 0-17.067 4.267-21.333 8.533-12.8 12.8-12.8 34.133 0 46.933l34.133 34.133c12.8 12.8 34.133 12.8 46.933 0s12.8-34.133 0-46.933l-34.133-34.133c-8.533-4.267-17.067-8.533-25.6-8.533zM268.8 657.067c-8.533 0-17.067 4.267-21.333 12.8l-34.133 34.133c-12.8 12.8-12.8 29.867 0 42.667s29.867 12.8 42.667 0l34.133-34.133c12.8-12.8 12.8-34.133 0-46.933-4.267-4.267-12.8-8.533-21.333-8.533zM512 755.2c-17.067 0-34.133 12.8-34.133 34.133v42.667c0 17.067 12.8 34.133 34.133 34.133s34.133-12.8 34.133-34.133v-42.667c0-17.067-17.067-34.133-34.133-34.133z" />
<glyph unicode="&#xe90c;" glyph-name="sunset" d="M810.667 29.867h-597.333c-17.067 0-34.133 12.8-34.133 34.133s12.8 34.133 34.133 34.133h597.333c17.067 0 34.133-12.8 34.133-34.133s-17.067-34.133-34.133-34.133zM896 157.867h-768c-17.067 0-34.133 12.8-34.133 34.133s12.8 34.133 34.133 34.133h145.067c17.067 119.467 119.467 213.333 243.2 213.333s226.133-93.867 243.2-213.333h136.533c17.067 0 34.133-12.8 34.133-34.133s-17.067-34.133-34.133-34.133zM337.067 226.133h358.4c-17.067 85.333-89.6 149.333-179.2 149.333s-162.133-68.267-179.2-149.333zM759.467 401.067c-8.533 0-17.067 4.267-21.333 8.533-12.8 12.8-12.8 34.133 0 46.933l59.733 59.733c12.8 12.8 34.133 12.8 46.933 0s12.8-34.133 0-46.933l-59.733-59.733c-8.533-4.267-17.067-8.533-25.6-8.533zM273.067 401.067c-8.533 0-17.067 4.267-21.333 8.533l-59.733 59.733c-12.8 12.8-12.8 34.133 0 46.933s34.133 12.8 46.933 0l59.733-59.733c12.8-12.8 12.8-34.133 0-46.933-8.533-4.267-17.067-8.533-25.6-8.533zM512 499.2c-4.267 0-8.533 0-12.8 4.267-4.267 0-8.533 4.267-8.533 8.533l-128 128c-12.8 12.8-12.8 34.133 0 46.933s34.133 12.8 46.933 0l72.533-72.533v217.6c0 17.067 12.8 34.133 34.133 34.133s34.133-12.8 34.133-34.133v-221.867l72.533 72.533c12.8 12.8 34.133 12.8 46.933 0s12.8-34.133 0-46.933l-128-128c-4.267-4.267-8.533-4.267-8.533-8.533-12.8 4.267-17.067 0-21.333 0z" />
<glyph unicode="&#xe90d;" glyph-name="users" d="M896 64h-768c-25.6 0-42.667 17.067-42.667 42.667v85.333c0 140.8 115.2 256 256 256 76.8 0 149.333-34.133 196.267-89.6 42.667 29.867 93.867 46.933 145.067 46.933 145.067 0 256-110.933 256-256v-42.667c0-25.6-17.067-42.667-42.667-42.667zM597.333 149.333h256c0 98.133-72.533 170.667-170.667 170.667-38.4 0-72.533-12.8-102.4-38.4 12.8-29.867 17.067-59.733 17.067-89.6v-42.667zM170.667 149.333h341.333v42.667c0 29.867-8.533 55.467-21.333 76.8 0 0 0 4.267 0 4.267-29.867 55.467-85.333 89.6-149.333 89.6-93.867 0-170.667-76.8-170.667-170.667v-42.667zM682.667 448c-72.533 0-128 55.467-128 128s55.467 128 128 128 128-55.467 128-128-55.467-128-128-128zM682.667 618.667c-25.6 0-42.667-17.067-42.667-42.667s17.067-42.667 42.667-42.667 42.667 17.067 42.667 42.667-17.067 42.667-42.667 42.667zM341.333 490.667c-93.867 0-170.667 76.8-170.667 170.667s76.8 170.667 170.667 170.667 170.667-76.8 170.667-170.667-76.8-170.667-170.667-170.667zM341.333 746.667c-46.933 0-85.333-38.4-85.333-85.333s38.4-85.333 85.333-85.333 85.333 38.4 85.333 85.333-38.4 85.333-85.333 85.333z" />
<glyph unicode="&#xe90e;" glyph-name="cloud-sun-alt" d="M725.333 29.867h-307.2c-132.267 0-234.667 102.4-234.667 226.133 0 102.4 76.8 192 179.2 217.6 42.667 81.067 128 132.267 217.6 132.267 123.733 0 226.133-89.6 243.2-204.8 64-34.133 102.4-102.4 102.4-174.933 4.267-106.667-89.6-196.267-200.533-196.267zM580.267 541.867c-72.533 0-140.8-42.667-166.4-106.667-4.267-8.533-12.8-17.067-25.6-17.067-85.333-12.8-145.067-76.8-145.067-157.867 0-89.6 76.8-162.133 170.667-162.133h311.467c76.8 0 136.533 59.733 136.533 132.267 0 55.467-34.133 106.667-81.067 123.733-12.8 4.267-17.067 17.067-21.333 25.6-4.267 93.867-81.067 162.133-179.2 162.133zM153.6 443.733c-8.533 0-17.067 4.267-21.333 8.533-12.8 12.8-12.8 34.133 0 46.933l29.867 34.133c12.8 12.8 34.133 12.8 46.933 0s12.8-34.133 0-46.933l-34.133-34.133c-4.267-4.267-12.8-8.533-21.333-8.533zM277.333 533.333c-4.267 0-8.533 0-17.067 4.267-4.267 4.267-12.8 8.533-17.067 12.8-25.6 21.333-42.667 55.467-42.667 89.6 0 64 51.2 119.467 119.467 119.467 42.667 0 81.067-25.6 102.4-59.733 8.533-17.067 12.8-38.4 12.8-55.467 0-4.267 0-8.533 0-12.8 0-17.067-17.067-29.867-34.133-29.867s-29.867 17.067-29.867 34.133c0 0 0 4.267 0 4.267 0 8.533-4.267 17.067-8.533 25.6-8.533 17.067-25.6 29.867-42.667 29.867-29.867 0-51.2-25.6-51.2-51.2 0-17.067 8.533-29.867 21.333-42.667 4.267 0 4.267-4.267 8.533-4.267 17.067-8.533 21.333-29.867 12.8-42.667-12.8-12.8-21.333-21.333-34.133-21.333zM132.267 610.133h-46.933c-17.067 0-34.133 12.8-34.133 34.133s17.067 29.867 34.133 29.867h46.933c17.067 0 34.133-12.8 34.133-34.133s-17.067-29.867-34.133-29.867zM452.267 742.4c-8.533 0-17.067 4.267-21.333 8.533-12.8 12.8-12.8 34.133 0 46.933l34.133 34.133c12.8 12.8 34.133 12.8 46.933 0s12.8-34.133 0-46.933l-34.133-34.133c-12.8-4.267-21.333-8.533-25.6-8.533zM187.733 742.4c-8.533 0-17.067 4.267-25.6 8.533l-29.867 34.133c-12.8 12.8-12.8 34.133 0 46.933s34.133 12.8 46.933 0l34.133-34.133c12.8-12.8 12.8-34.133 0-46.933-12.8-4.267-21.333-8.533-25.6-8.533zM320 797.867c-21.333 0-34.133 12.8-34.133 29.867v46.933c0 17.067 12.8 34.133 34.133 34.133s29.867-17.067 29.867-34.133v-46.933c0-17.067-12.8-29.867-29.867-29.867z" />
<glyph unicode="&#xe90f;" glyph-name="clock-eight" d="M512 64c-213.333 0-384 170.667-384 384s170.667 384 384 384c213.333 0 384-170.667 384-384s-170.667-384-384-384zM512 746.667c-166.4 0-298.667-132.267-298.667-298.667s132.267-298.667 298.667-298.667c166.4 0 298.667 132.267 298.667 298.667s-132.267 298.667-298.667 298.667zM405.333 341.333c-12.8 0-29.867 8.533-38.4 21.333-12.8 21.333-4.267 46.933 12.8 59.733l85.333 51.2v145.067c0 25.6 17.067 42.667 42.667 42.667s42.667-17.067 42.667-42.667v-170.667c0-17.067-8.533-29.867-21.333-38.4l-102.4-64c-4.267-4.267-12.8-4.267-21.333-4.267z" />
<glyph unicode="&#xe910;" glyph-name="chevron-right" d="M384 140.8c-12.8 0-25.6 6.4-32 12.8-19.2 19.2-19.2 51.2 0 70.4l217.6 224-217.6 224c-19.2 19.2-19.2 51.2 0 70.4s51.2 19.2 70.4 0l256-256c19.2-19.2 19.2-51.2 0-70.4l-256-256c-12.8-12.8-25.6-19.2-38.4-19.2z" />
<glyph unicode="&#xe911;" glyph-name="check" d="M379.733 170.667c-12.8 0-21.333 4.267-29.867 12.8l-209.067 209.067c-17.067 17.067-17.067 42.667 0 59.733s42.667 17.067 59.733 0l179.2-179.2 443.733 439.467c17.067 17.067 42.667 17.067 59.733 0s17.067-42.667 0-59.733l-473.6-469.333c-8.533-8.533-17.067-12.8-29.867-12.8z" />
<glyph unicode="&#xe912;" glyph-name="campground" d="M896 29.867h-768c-17.067 0-34.133 12.8-34.133 34.133v81.067c0 8.533 4.267 12.8 4.267 17.067l371.2 507.733-98.133 145.067c-8.533 12.8-8.533 34.133 8.533 42.667 12.8 8.533 34.133 8.533 42.667-8.533l89.6-123.733 89.6 123.733c8.533 12.8 29.867 17.067 42.667 8.533s17.067-29.867 8.533-42.667l-102.4-140.8 371.2-507.733c4.267-4.267 4.267-12.8 4.267-17.067v-85.333c4.267-17.067-12.8-34.133-29.867-34.133zM699.733 98.133h162.133v38.4l-349.867 477.867-349.867-482.133v-38.4h162.133l162.133 281.6c12.8 21.333 42.667 21.333 55.467 0l157.867-277.333zM396.8 98.133h230.4l-115.2 200.533-115.2-200.533z" />
<glyph unicode="&#xe913;" glyph-name="arrow-up-right" horiz-adv-x="1059" d="M314.262 207.89c-7.062 0-14.124 3.531-17.655 7.062-10.593 10.593-10.593 28.248 0 38.841l377.821 377.821h-317.793c-14.124 0-28.248 10.593-28.248 28.248s10.593 28.248 28.248 28.248h381.352c3.531 0 7.062 0 10.593-3.531 0 0 0 0 0 0v0c3.531 0 7.062-3.531 7.062-7.062s3.531-7.062 7.062-7.062c0 0 0 0 0 0s0 0 0 0c0-3.531 3.531-7.062 3.531-10.593v-381.352c0-14.124-10.593-28.248-28.248-28.248s-28.248 10.593-28.248 28.248v317.793l-377.821-381.352c-3.531-3.531-10.593-7.062-17.655-7.062z" />
<glyph unicode="&#xe914;" glyph-name="Arrow-right" horiz-adv-x="768" d="M192-38.4c-25.6 0-51.2 12.8-64 38.4-38.4 38.4-38.4 89.6 0 128l307.2 320-307.2 320c-38.4 38.4-38.4 89.6 0 128s102.4 38.4 140.8 0l384-384c38.4-38.4 38.4-102.4 0-140.8l-384-384c-25.6-12.8-51.2-25.6-76.8-25.6z" />
<glyph unicode="&#xe915;" glyph-name="world" d="M991.754 621.526c0 0 0 0 0 2.56-36.076 98.498-101.535 183.538-187.525 243.617-85.985 60.079-188.349 92.298-293.245 92.298s-207.261-32.219-293.247-92.298c-85.987-60.079-151.445-145.119-187.521-243.617 0 0 0 0 0-2.56-40.288-111.15-40.288-232.912 0-344.062 0 0 0 0 0-2.56 36.076-98.499 101.534-183.537 187.521-243.62 85.986-60.078 188.351-92.298 293.247-92.298s207.26 32.22 293.245 92.298c85.99 60.083 151.45 145.121 187.525 243.62 0 0 0 0 0 2.56 40.284 111.15 40.284 232.913 0 344.062zM113.672 347.095c-17.755 67.113-17.755 137.687 0 204.798h95.232c-8.19-68.021-8.19-136.779 0-204.798h-95.232zM155.656 244.695h71.68c12.018-45.665 29.195-89.81 51.2-131.584-50.212 34.202-92.186 79.15-122.88 131.584zM227.336 654.294h-71.68c30.253 52.271 71.69 97.205 121.344 131.584-21.476-41.843-38.137-85.986-49.664-131.584zM458.76 55.255c-62.886 46.147-107.052 113.393-124.416 189.44h124.416v-189.44zM458.76 347.095h-146.432c-9.554 67.932-9.554 136.866 0 204.798h146.432v-204.798zM458.76 654.294h-124.416c17.364 76.044 61.53 143.292 124.416 189.44v-189.44zM864.266 654.294h-71.68c-12.022 45.662-29.199 89.808-51.2 131.584 50.212-34.205 92.186-79.152 122.88-131.584zM561.162 843.734c62.884-46.148 107.049-113.396 124.416-189.44h-124.416v189.44zM561.162 55.255v189.44h124.416c-17.367-76.047-61.532-143.293-124.416-189.44zM707.594 347.095h-146.432v204.798h146.432c9.554-67.932 9.554-136.866 0-204.798zM742.922 113.111c22.001 41.774 39.178 85.919 51.2 131.584h71.68c-30.694-52.434-72.668-97.382-122.88-131.584zM906.25 347.095h-95.232c4.163 33.971 6.216 68.173 6.144 102.398 0.056 34.227-1.997 68.425-6.144 102.4h95.232c17.751-67.112 17.751-137.686 0-204.798z" />
<glyph unicode="&#xe916;" glyph-name="whatsapp" d="M403.2 265.601c32-19.202 70.4-28.799 108.8-28.799 118.399 0 211.202 95.998 211.202 207.999 0 57.599-19.202 108.799-60.801 150.399-41.599 38.4-92.799 60.8-150.401 60.8-115.2 0-211.2-96-211.2-211.199 0-38.4 9.6-76.8 32-112.001l6.4-9.601-22.4-76.8 80 22.401 6.4-3.199zM582.402 416.002c6.398 0 38.4-16.004 44.798-19.202 0.995-0.497 1.994-0.917 2.979-1.336 5.335-2.253 10.318-4.354 13.019-17.861 3.204 0 3.199-12.8-3.199-28.804-3.199-12.8-28.799-28.799-41.599-28.799-2.17 0-4.247-0.185-6.466-0.38-10.874-0.961-25.151-2.224-70.334 16.379-56.081 22.43-94.961 76.805-105.879 92.072-1.542 2.155-2.527 3.535-2.923 3.93-0.545 1.087-1.646 2.828-3.099 5.12-7.080 11.181-22.501 35.527-22.501 62.079 0 32 15.999 48 22.399 54.4s12.8 6.4 16 6.4h12.8c3.2 0 9.6 0 12.8-9.6 6.4-12.8 19.2-44.8 19.2-48 0-1.066 0.355-2.133 0.711-3.2 0.711-2.133 1.422-4.267-0.711-6.4-1.6-1.6-2.4-3.2-3.2-4.8s-1.6-3.2-3.2-4.8l-9.599-9.6c-3.2-3.199-6.4-6.402-3.2-12.8 3.2-6.402 16-28.799 35.2-44.798 21.601-18.905 38.648-26.414 47.289-30.223 1.599-0.702 2.911-1.282 3.911-1.78 6.398 0 9.601 0 12.8 3.199 1.599 3.199 5.598 8.002 9.601 12.8 3.998 4.803 7.997 9.601 9.596 12.8 3.204 6.402 6.402 6.402 12.805 3.204zM0 800v-704.002c0-88.361 71.635-159.998 160-159.998h704.002c88.361 0 159.998 71.636 159.998 159.998v704.002c0 88.365-71.636 160-159.998 160h-704.002c-88.365 0-160-71.635-160-160zM512 704c67.199 0 131.199-25.6 179.2-73.6s76.8-112 76.8-179.201c0-140.8-115.2-256-256-256-41.6 0-83.2 12.8-121.6 32.002l-134.4-35.201 35.2 128c-22.4 38.4-35.2 83.198-35.2 128 0 140.8 115.2 256 256 256z" />
<glyph unicode="&#xe917;" glyph-name="twitter" horiz-adv-x="1260" d="M1259.922 888.42c0.008 9.662-2.662 19.153-7.751 27.506-5.081 8.353-12.39 15.271-21.181 20.048-8.799 4.777-18.755 7.243-28.869 7.147s-20.023-2.751-28.719-7.694c-33.516-19.056-69.608-33.65-107.26-43.377-53.776 44.075-122.368 68.193-193.229 67.947-77.737-0.085-152.396-29.023-208.213-80.702s-88.425-122.055-90.934-196.267c-153.252 23.342-292.149 99.743-390.203 214.632-5.908 6.846-13.453 12.235-21.999 15.713s-17.842 4.94-27.104 4.266c-9.257-0.728-18.189-3.599-26.024-8.364s-14.335-11.282-18.942-18.986c-23.622-39.373-37.188-83.512-39.598-128.834s6.405-90.546 25.729-132.002l-0.112-0.107c-8.685-5.109-15.852-12.261-20.817-20.771s-7.56-18.096-7.538-27.839c-0.105-8.037 0.4-16.070 1.51-24.037 5.849-68.826 37.785-133.251 89.818-181.192-3.53-6.423-5.684-13.453-6.338-20.68s0.209-14.507 2.535-21.413c22.685-67.507 70.927-124.499 135.286-159.824-65.387-24.151-135.99-32.572-205.586-24.522-12.881 1.544-25.93-1.134-37.004-7.609-11.075-6.467-19.518-16.345-23.946-27.995-4.428-11.658-4.576-24.411-0.421-36.155s12.366-21.795 23.288-28.499c119.697-73.641 259.065-112.79 401.441-112.766 161.455-1.741 318.985 47.537 448.087 140.17 129.095 92.625 222.523 223.403 265.752 371.995 20.22 64.729 30.547 131.909 30.657 199.457 0 3.579 0 7.265-0.063 10.95 29.901 30.8 53.067 66.99 68.135 106.45s21.732 81.396 19.614 123.35zM1070.553 712.732c-9.452-10.686-14.241-24.44-13.359-38.408 0.559-9.025 0.496-18.105 0.496-26.655-0.11-57.081-8.869-113.845-26.002-168.531-35.304-126.432-114.011-237.889-223.516-316.526-109.502-78.627-243.464-119.887-380.433-117.169-49.201-0.016-98.232 5.506-146.080 16.455 61.015 18.779 118.064 47.734 168.506 85.52 9.29 6.987 16.089 16.549 19.465 27.372s3.161 22.381-0.614 33.084-10.924 20.029-20.467 26.697c-9.544 6.668-21.014 10.352-32.837 10.546-47.6 0.707-93.054 19.034-126.785 51.12 8.557 1.549 17.057 3.472 25.502 5.769 12.371 3.363 23.197 10.605 30.734 20.56s11.348 22.042 10.819 34.317c-0.53 12.274-5.369 24.021-13.738 33.349s-19.782 15.695-32.401 18.075c-27.63 5.211-53.629 16.439-75.978 32.809s-40.442 37.443-52.877 61.579c10.35-1.349 20.767-2.187 31.207-2.511 12.404-0.179 24.545 3.415 34.669 10.261s17.706 16.592 21.649 27.825c3.779 11.336 3.584 23.539-0.554 34.76s-11.993 20.846-22.376 27.418c-25.19 16.029-45.824 37.774-60.054 63.29s-21.613 54.003-21.487 82.912c0 3.632 0.112 7.265 0.336 10.844 128.354-114.336 294.838-181.736 470.119-190.326 8.847-0.332 17.658 1.259 25.768 4.655s15.305 8.508 21.043 14.95c5.679 6.503 9.701 14.178 11.748 22.418s2.064 16.822 0.049 25.070c-3.275 13.053-4.946 26.426-4.977 39.849 0.052 46.794 19.537 91.656 54.179 124.744s81.61 51.698 130.604 51.747c25.206 0.065 50.152-4.862 73.263-14.471s43.89-23.687 61.015-41.351c6.609-6.787 14.919-11.848 24.151-14.699s19.070-3.401 28.585-1.595c23.528 4.372 46.718 10.262 69.404 17.627-15.478-30.247-35.257-58.306-58.778-83.381z" />
<glyph unicode="&#xe918;" glyph-name="twitter-1" d="M0 800v-704.002c0-88.361 71.635-159.998 160-159.998h704.002c88.361 0 159.998 71.636 159.998 159.998v704.002c0 88.365-71.636 160-159.998 160h-704.002c-88.365 0-160-71.635-160-160zM707.199 592c22.401 3.2 41.599 6.4 60.801 16-12.8-22.4-31.998-41.6-54.399-54.4 6.398-150.398-102.4-313.599-297.601-313.599-57.6 0-112 19.198-160 48.001 54.4-6.402 112 9.596 150.4 38.4-48 0-86.4 31.998-99.2 73.596 16-3.199 32 0 48 3.204-48 12.8-83.2 57.598-83.2 105.597 16-6.4 32-12.8 48-12.8-44.8 32-60.8 92.8-32 140.8 54.4-64 131.2-105.6 217.602-108.8-16.004 64 35.196 128 102.4 128 28.799 0 57.598-12.8 76.795-32 25.6 6.4 48.001 12.8 67.204 25.6-6.402-25.6-22.401-44.8-44.802-57.6z" />
<glyph unicode="&#xe919;" glyph-name="telegram" d="M160 960h704.002c88.361 0 159.998-71.635 159.998-160v-704.002c0-88.361-71.636-159.998-159.998-159.998h-704.002c-88.365 0-160 71.636-160 159.998v704.002c0 88.365 71.635 160 160 160zM534.138 575.764c-45.856-19.073-137.502-58.549-274.941-118.431-22.318-8.875-34.009-17.554-35.073-26.044-1.798-14.351 16.169-19.997 40.636-27.692 3.328-1.048 6.776-2.131 10.312-3.282 24.072-7.826 56.453-16.979 73.286-17.34 15.27-0.332 32.312 5.964 51.127 18.885 128.412 86.68 194.699 130.494 198.863 131.439 2.935 0.666 7.002 1.504 9.762-0.946 2.755-2.45 2.482-7.090 2.194-8.335-1.78-7.588-72.309-73.157-108.807-107.090-11.381-10.576-19.451-18.081-21.101-19.797-3.696-3.838-7.463-7.47-11.083-10.957-22.363-21.558-39.133-37.727 0.928-64.127 19.251-12.688 34.659-23.177 50.029-33.646 16.784-11.43 33.524-22.83 55.184-37.030 5.52-3.618 10.791-7.373 15.921-11.035 19.534-13.926 37.083-26.434 58.763-24.439 12.6 1.161 25.615 13.005 32.222 48.333 15.618 83.495 46.319 264.406 53.414 338.954 0.619 6.531-0.161 14.89-0.79 18.559s-1.941 8.898-6.71 12.768c-5.647 4.584-14.37 5.55-18.266 5.485-17.735-0.316-44.939-9.776-175.87-64.233z" />
<glyph unicode="&#xe91a;" glyph-name="start-white" horiz-adv-x="967" d="M841.398 618.762l-549.546 315.165c-29.736 17.171-63.488 26.167-97.826 26.072s-68.040-9.275-97.682-26.609c-29.642-17.334-54.168-42.205-71.087-72.086s-25.629-63.708-25.244-98.044v-632.603c0-51.604 20.498-101.086 56.985-137.574s85.974-56.986 137.574-56.986c34.158 0.057 67.703 9.079 97.28 26.169l549.546 315.164c29.531 17.089 54.044 41.643 71.088 71.196 17.044 29.559 26.015 63.076 26.015 97.194s-8.971 67.636-26.015 97.191c-17.044 29.555-41.557 54.11-71.088 71.2v4.551zM784.509 380.399l-549.546-319.716c-12.317-6.98-26.233-10.65-40.391-10.65s-28.074 3.669-40.391 10.65c-12.282 7.088-22.481 17.289-29.571 29.571-7.091 12.288-10.822 26.22-10.82 40.402v634.879c-0.002 14.183 3.729 28.116 10.82 40.399s17.289 22.483 29.571 29.574c12.368 6.875 26.243 10.588 40.391 10.809 14.139-0.29 27.997-3.999 40.391-10.809l549.546-317.44c12.288-7.088 22.494-17.287 29.588-29.57s10.826-26.218 10.826-40.403c0-14.185-3.732-28.12-10.826-40.403s-17.3-22.481-29.588-29.569v2.276z" />
<glyph unicode="&#xe91b;" glyph-name="star-full" horiz-adv-x="1103" d="M613.879 886.058l90.847-181.693c12.388-25.293 45.423-49.553 73.296-54.198l164.657-27.357c105.299-17.55 130.080-93.944 54.201-169.305l-128.008-128.011c-21.685-21.68-33.556-63.49-26.845-93.427l36.651-158.464c28.9-125.432-37.683-173.954-148.661-108.402l-154.336 91.364c-27.873 16.518-73.813 16.518-102.202 0l-154.336-91.364c-110.461-65.552-177.564-16.51-148.658 108.402l36.648 158.464c6.71 29.938-5.162 71.748-26.841 93.427l-128.011 128.011c-75.361 75.361-51.101 151.755 54.198 169.305l164.659 27.357c27.357 4.645 60.392 28.905 72.781 54.198l90.846 181.693c49.553 98.589 130.076 98.589 179.113 0z" />
<glyph unicode="&#xe91c;" glyph-name="star-empty" horiz-adv-x="1103" d="M639.264 886.058l90.846-181.693c12.388-25.293 45.423-49.553 73.297-54.198l164.659-27.357c105.299-17.55 130.080-93.944 54.201-169.305l-128.016-128.011c-21.677-21.68-33.548-63.49-26.837-93.427l36.643-158.464c28.908-125.432-37.675-173.954-148.656-108.402l-154.336 91.364c-27.873 16.518-73.812 16.518-102.202 0l-154.336-91.364c-110.461-65.552-177.564-16.51-148.658 108.402l36.648 158.464c6.71 29.938-5.162 71.748-26.841 93.427l-128.011 128.011c-75.361 75.361-51.101 151.755 54.199 169.305l164.659 27.357c27.357 4.645 60.392 28.905 72.78 54.198l90.847 181.693c49.553 98.589 130.076 98.589 179.113 0z" />
<glyph unicode="&#xe91d;" glyph-name="star-elon" d="M576.155 889.632l86.455-172.911c11.79-24.070 43.228-47.158 69.754-51.579l156.698-26.035c100.215-16.701 123.793-89.403 51.584-161.121l-121.826-121.824c-20.631-20.631-31.929-60.421-25.544-88.912l34.877-150.806c27.509-119.369-35.86-165.543-141.473-103.156l-146.877 86.946c-26.526 15.719-70.245 15.719-97.262 0l-146.877-86.946c-105.122-62.387-168.981-15.718-141.473 103.156l34.877 150.806c6.385 28.491-4.913 68.281-25.544 88.912l-121.824 121.824c-71.719 71.718-48.631 144.42 51.579 161.121l156.701 26.035c26.035 4.421 57.474 27.509 69.263 51.579l86.456 172.911c47.157 93.824 123.789 93.824 170.455 0z" />
<glyph unicode="&#xe91e;" glyph-name="star" horiz-adv-x="1138" d="M638.461 842.524l85.018-170.035c11.594-23.67 42.509-46.374 68.594-50.721l154.094-25.602c98.544-16.424 121.73-87.916 50.721-158.441l-119.798-119.798c-20.288-20.289-31.398-59.416-25.119-87.434l34.297-148.298c27.051-117.382-35.263-162.79-139.121-101.442l-144.433 85.502c-26.085 15.458-69.077 15.458-95.645 0l-144.433-85.502c-103.374-61.348-166.171-15.457-139.121 101.442l34.297 148.298c6.279 28.018-4.831 67.145-25.119 87.434l-119.798 119.798c-70.526 70.525-47.823 142.017 50.721 158.441l154.094 25.602c25.602 4.347 56.518 27.051 68.111 50.721l85.018 170.035c46.374 92.264 121.73 92.264 167.62 0z" />
<glyph unicode="&#xe91f;" glyph-name="linkedin" d="M0 800c0 88.365 71.635 160 160 160h704.002c88.361 0 159.998-71.635 159.998-160v-704.002c0-88.361-71.636-159.998-159.998-159.998h-704.002c-88.365 0-160 71.636-160 159.998v704.002zM262.4 534.4v-342.4h108.8v342.4h-108.8zM256 643.2c0-35.2 25.6-60.8 60.8-60.8s60.8 25.6 60.8 60.8c0 35.2-25.6 60.8-60.8 60.8-32 0-60.8-25.6-60.8-60.8zM659.202 192h102.4v211.198c0 105.603-64.005 140.802-124.801 140.802-54.404 0-92.804-35.2-102.4-57.6v48h-102.401v-342.4h108.799v182.399c0 48.001 32.002 73.601 64 73.601 32.002 0 54.404-15.999 54.404-70.398v-185.602z" />
<glyph unicode="&#xe920;" glyph-name="insta" horiz-adv-x="1097" d="M841.509 782.848c-13.019 0-25.746-3.604-36.571-10.355s-19.266-16.347-24.247-27.573c-4.981-11.227-6.283-23.58-3.745-35.498s8.806-22.865 18.015-31.458c9.209-8.593 20.933-14.444 33.704-16.815s26.010-1.154 38.034 3.496c12.032 4.65 22.309 12.525 29.542 22.629s11.096 21.982 11.096 34.134c0 16.295-6.934 31.922-19.28 43.445s-29.089 17.995-46.548 17.995zM1093.851 658.944c-1.068 42.481-9.589 84.511-25.234 124.416-13.948 34.144-35.657 65.061-63.634 90.624-27.165 26.244-60.365 46.378-97.097 58.88-42.642 15.045-87.728 23.183-133.303 24.064-58.149 3.072-76.8 3.072-226.011 3.072s-167.863 0-226.011-3.072c-45.578-0.881-90.66-9.019-133.303-24.064-36.662-12.628-69.837-32.745-97.097-58.88-28.118-25.353-49.691-56.343-63.086-90.624-16.119-39.8-24.839-81.877-25.783-124.416-3.291-54.272-3.291-71.68-3.291-210.944s0-156.672 3.291-210.944c0.944-42.54 9.664-84.619 25.783-124.416 13.395-34.282 34.967-65.273 63.086-90.624 27.26-26.134 60.435-46.248 97.097-58.88 42.643-15.045 87.725-23.186 133.303-24.064 58.149-3.072 76.8-3.072 226.011-3.072s167.863 0 226.011 3.072c45.575 0.878 90.661 9.019 133.303 24.064 36.732 12.5 69.932 32.636 97.097 58.88 28.101 25.468 49.832 56.415 63.634 90.624 15.645 39.907 24.166 81.935 25.234 124.416 0 54.272 3.291 71.68 3.291 210.944s0 156.672-3.291 210.944zM995.109 243.2c-0.402-32.497-6.707-64.702-18.651-95.232-8.763-22.279-22.828-42.416-41.143-58.88-17.796-16.925-39.322-30.025-63.086-38.4-32.709-11.147-67.211-17.035-102.034-17.408-54.857-2.56-75.154-3.072-219.429-3.072s-164.571 0-219.429 3.072c-36.157-0.629-72.159 4.564-106.423 15.36-22.723 8.799-43.263 21.87-60.343 38.4-18.207 16.45-32.1 36.601-40.594 58.88-13.393 30.969-20.822 63.898-21.943 97.28 0 51.2-3.291 70.144-3.291 204.8s0 153.6 3.291 204.8c0.246 33.226 6.745 66.153 19.2 97.28 9.658 21.611 24.481 40.875 43.337 56.32 16.666 17.604 37.264 31.585 60.343 40.96 33.438 11.262 68.681 17.148 104.229 17.408 54.857 0 75.154 3.072 219.429 3.072s164.571 0 219.429-3.072c34.823-0.373 69.325-6.259 102.034-17.408 24.927-8.635 47.301-22.674 65.28-40.96 17.979-15.727 32.022-34.956 41.143-56.32 12.193-31.177 18.505-64.091 18.651-97.28 2.743-51.2 3.291-70.144 3.291-204.8s-0.549-153.6-3.291-204.8zM548.571 710.656c-55.635-0.101-109.991-15.592-156.197-44.514s-82.191-69.979-103.406-117.982c-21.216-48.003-26.711-100.798-15.79-151.714s37.766-97.669 77.145-134.352c39.379-36.682 89.523-61.646 144.097-71.739s111.13-4.864 162.521 15.031c51.39 19.895 95.312 53.562 126.208 96.745s47.389 93.944 47.389 145.87c0.073 34.555-7.175 68.782-21.328 100.713-14.146 31.931-34.926 60.935-61.125 85.345-26.208 24.411-57.325 43.745-91.564 56.89s-70.925 19.844-107.948 19.708zM548.571 277.504c-36.13 0-71.447 9.999-101.489 28.733s-53.454 45.362-67.28 76.516c-13.826 31.154-17.444 65.436-10.395 98.509s24.447 63.452 49.994 87.297c25.547 23.844 58.097 40.082 93.532 46.661s72.165 3.202 105.544-9.702c33.379-12.904 61.91-34.757 81.982-62.795s30.786-61.001 30.786-94.722c0-22.39-4.725-44.56-13.905-65.246-9.18-20.685-22.636-39.48-39.599-55.313s-37.101-28.39-59.264-36.958c-22.163-8.569-45.917-12.978-69.906-12.978z" />
<glyph unicode="&#xe921;" glyph-name="in" horiz-adv-x="1092" d="M811.691 603.947c-45.67 0.018-90.631-10.547-130.869-30.751-3.672 9.045-10.199 16.83-18.715 22.323s-18.617 8.432-28.961 8.428h-204.054c-6.7 0.003-13.335-1.228-19.526-3.624s-11.816-5.911-16.554-10.342c-4.738-4.431-8.495-9.692-11.057-15.482s-3.88-11.996-3.875-18.262v-572.525c-0.004-6.267 1.313-12.472 3.875-18.261s6.32-11.052 11.058-15.483c4.738-4.431 10.363-7.946 16.554-10.342s12.827-3.632 19.526-3.625h204.054c6.7-0.007 13.336 1.229 19.527 3.625s11.816 5.912 16.554 10.342c4.738 4.431 8.495 9.694 11.058 15.483 2.56 5.789 3.878 11.994 3.878 18.261v262.403c0 12.657 5.373 24.794 14.937 33.739 9.571 8.948 22.542 13.974 36.072 13.974s26.508-5.026 36.072-13.974c9.571-8.945 14.944-21.083 14.944-33.739v-262.403c-0.007-6.267 1.311-12.472 3.878-18.261 2.56-5.789 6.315-11.052 11.052-15.483s10.363-7.946 16.555-10.342c6.192-2.396 12.827-3.632 19.531-3.625h204.049c6.704-0.007 13.339 1.229 19.531 3.625s11.817 5.912 16.555 10.342c4.738 4.431 8.492 9.694 11.052 15.483 2.567 5.789 3.884 11.994 3.878 18.261v357.828c-0.096 69.569-29.682 136.262-82.282 185.455s-123.911 76.866-198.294 76.953zM990.242 31.423h-102.031v214.692c0 37.964-16.125 74.37-44.824 101.213s-67.625 41.922-108.216 41.922c-40.585 0-79.514-15.080-108.214-41.922s-44.825-63.249-44.825-101.213v-214.692h-102.027v477.103h102.027v-33.546c0.006-9.886 3.294-19.526 9.409-27.589s14.757-14.151 24.73-17.424c9.974-3.273 20.789-3.569 30.95-0.847s19.169 8.327 25.778 16.041c22.897 27.193 54.292 47.022 89.818 56.717s73.407 8.772 108.339-2.641c34.939-11.411 65.195-32.742 86.542-61.014s32.727-62.072 32.543-96.683v-310.116zM276.051 603.947h-204.054c-6.7 0.003-13.335-1.228-19.526-3.624s-11.816-5.911-16.554-10.342c-4.738-4.431-8.495-9.692-11.058-15.482s-3.879-11.996-3.875-18.262v-572.525c-0.004-6.267 1.313-12.472 3.875-18.261s6.32-11.052 11.058-15.483c4.738-4.431 10.363-7.946 16.554-10.342s12.826-3.632 19.526-3.625h204.054c6.7-0.007 13.336 1.229 19.527 3.625s11.816 5.912 16.554 10.342c4.738 4.431 8.495 9.694 11.057 15.483s3.88 11.994 3.875 18.261v572.525c0.004 6.266-1.313 12.472-3.875 18.262s-6.319 11.051-11.057 15.482c-4.738 4.431-10.364 7.946-16.554 10.342s-12.827 3.628-19.527 3.624zM225.038 31.423h-102.027v477.103h102.027v-477.103zM174.772 959.724c-22.326 1.25-44.69-1.76-65.733-8.848s-40.324-18.104-56.671-32.379c-16.348-14.275-29.42-31.511-38.421-50.659s-13.745-39.809-13.941-60.725c-0.196-20.917 4.159-41.652 12.8-60.945s21.388-36.741 37.465-51.282c16.077-14.541 35.149-25.872 56.055-33.304s43.211-10.808 65.556-9.925h1.445c22.384-1.244 44.805 1.795 65.892 8.929s40.396 18.215 56.749 32.565c16.353 14.35 29.407 31.667 38.362 50.894s13.625 39.96 13.723 60.932c0.098 20.972-4.377 41.742-13.151 61.042s-21.665 36.724-37.883 51.207c-16.217 14.483-35.423 25.722-56.442 33.029s-43.41 10.529-65.805 9.469zM173.327 747.078h-1.445c-8.821-1.001-17.77-0.228-26.246 2.27s-16.283 6.661-22.897 12.212c-6.614 5.551-11.883 12.36-15.454 19.971s-5.359 15.848-5.246 24.159c0 35.597 28.546 58.613 72.734 58.613 8.912 1.111 17.975 0.423 26.578-2.017s16.549-6.577 23.299-12.131c6.75-5.554 12.149-12.397 15.834-20.067s5.569-15.989 5.527-24.398c0-35.596-28.546-58.612-72.684-58.612z" />
<glyph unicode="&#xe922;" glyph-name="facebook" d="M0 800v-704.002c0-88.361 71.635-159.998 160-159.998h704.002c88.361 0 159.998 71.636 159.998 159.998v704.002c0 88.365-71.636 160-159.998 160h-704.002c-88.365 0-160-71.635-160-160zM512 704c140.8 0 256-115.2 256-256 0-128-92.799-236.798-220.799-256v182.399h60.801l12.795 73.601h-70.398v48c0 19.2 9.601 38.4 41.599 38.4h32.002v64c0 0-28.799 6.4-57.602 6.4-57.598 0-95.999-35.2-95.999-99.2v-57.6h-64v-73.601h64v-179.2c-121.6 19.202-214.4 124.801-214.4 252.801 0 140.8 115.2 256 256 256z" />
<glyph unicode="&#xe923;" glyph-name="face" horiz-adv-x="585" d="M479.265 790.015h105.878v162.816c-51.264 4.846-102.772 7.239-154.311 7.168-153.185 0-257.936-84.992-257.936-240.64v-134.143h-172.896v-182.272h172.896v-466.943h207.25v466.943h172.333l25.906 182.272h-198.238v116.223c0 53.76 15.769 88.576 99.119 88.576z" />
<glyph unicode="&#xe924;" glyph-name="car" d="M853.308 458.662h-682.668c-9.813 0-18.773 4.267-24.747 11.947-5.973 7.253-8.533 17.493-6.4 26.88l48.213 230.401c15.787 74.667 47.787 143.36 174.507 143.36h299.948c126.72 0 158.72-69.12 174.507-143.36l48.213-230.828c2.133-9.387-0.427-19.2-6.4-26.88-6.4-7.253-15.36-11.52-25.173-11.52zM209.893 522.662h603.735l-40.107 192.001c-11.947 55.893-26.027 92.587-111.787 92.587h-299.521c-85.76 0-99.84-36.693-111.787-92.587l-40.533-192.001zM851.61-10.667h-80.213c-69.12 0-82.347 39.68-90.88 65.707l-8.533 25.6c-11.093 32.427-12.373 36.693-50.773 36.693h-218.453c-38.4 0-40.96-7.253-50.773-36.693l-8.533-25.6c-8.96-26.453-21.76-65.707-90.88-65.707h-80.213c-33.707 0-66.133 14.080-88.747 38.827-22.187 24.32-32.853 56.747-29.867 89.173l23.893 259.84c6.4 70.4 25.173 145.493 162.133 145.493h544.427c136.96 0 155.307-75.093 162.133-145.493l23.893-259.84c2.987-32.427-7.68-64.853-29.867-89.173-22.613-24.747-55.040-38.827-88.747-38.827zM402.756 181.333h218.453c77.653 0 96-34.56 111.36-79.787l8.96-26.453c7.253-21.76 7.253-22.187 30.293-22.187h80.213c15.787 0 30.72 6.4 41.387 17.92 10.24 11.093 14.933 25.173 13.653 40.107l-23.893 259.84c-5.547 57.6-12.373 87.467-98.133 87.467h-545.28c-86.187 0-93.013-29.867-98.133-87.467l-23.893-259.84c-1.28-14.933 3.413-29.013 13.653-40.107 10.24-11.52 25.6-17.92 41.387-17.92h80.213c23.040 0 23.040 0.427 30.293 21.76l8.533 26.027c10.667 34.133 26.453 80.64 110.933 80.64zM170.667 586.667h-42.667c-17.493 0-32 14.507-32 32s14.507 32 32 32h42.667c17.493 0 32-14.507 32-32s-14.507-32-32-32zM896 586.667h-42.667c-17.493 0-32 14.507-32 32s14.507 32 32 32h42.667c17.493 0 32-14.507 32-32s-14.507-32-32-32zM512 714.667c-17.493 0-32 14.507-32 32v85.333c0 17.493 14.507 32 32 32s32-14.507 32-32v-85.333c0-17.493-14.507-32-32-32zM576 714.667h-128c-17.493 0-32 14.507-32 32s14.507 32 32 32h128c17.493 0 32-14.507 32-32s-14.507-32-32-32zM384 288h-128c-17.493 0-32 14.507-32 32s14.507 32 32 32h128c17.493 0 32-14.507 32-32s-14.507-32-32-32zM768 288h-128c-17.493 0-32 14.507-32 32s14.507 32 32 32h128c17.493 0 32-14.507 32-32s-14.507-32-32-32z" />
<glyph unicode="&#xe925;" glyph-name="bus" d="M721.067-10.667h-418.133c-90.453 0-164.267 73.813-164.267 164.267v588.8c0 90.453 73.814 164.267 164.267 164.267h418.133c90.453 0 164.267-73.814 164.267-164.267v-588.8c0-90.453-73.813-164.267-164.267-164.267zM302.934 842.667c-55.040 0-100.267-44.8-100.267-100.267v-588.8c0-55.040 44.8-100.267 100.267-100.267h418.133c55.040 0 100.267 44.8 100.267 100.267v588.8c0 55.040-44.8 100.267-100.267 100.267h-418.133zM789.333 373.333h-554.667c-52.907 0-96 43.093-96 96v85.333c0 52.907 43.093 96 96 96h554.667c52.907 0 96-43.093 96-96v-85.333c0-52.907-43.093-96-96-96zM234.667 586.667c-17.493 0-32-14.507-32-32v-85.333c0-17.493 14.507-32 32-32h554.667c17.493 0 32 14.507 32 32v85.333c0 17.493-14.507 32-32 32h-554.667zM341.333 159.996c-14.080 0-27.733 5.547-37.547 15.787-2.56 2.133-4.693 5.12-6.826 8.107-1.707 2.56-3.413 5.973-4.693 8.96-1.707 3.413-2.56 6.827-3.414 10.24-0.427 3.413-0.853 6.827-0.853 10.24s0.427 6.827 0.853 10.24c0.853 3.413 1.707 6.827 3.414 10.24 1.28 2.987 2.987 6.4 4.693 8.96 2.133 2.987 4.266 5.973 6.826 8.107 19.627 20.053 55.040 20.053 75.093 0 2.56-2.133 4.693-5.12 6.826-8.107 1.707-2.56 3.413-5.973 4.693-8.96 1.707-3.413 2.56-6.827 3.414-10.24 0.427-3.413 0.853-6.827 0.853-10.24s-0.427-6.827-0.853-10.24c-0.853-3.413-1.707-6.827-3.414-10.24-1.28-2.987-2.987-6.4-4.693-8.96-2.133-2.987-4.266-5.973-6.826-8.107-9.813-10.24-23.467-15.787-37.547-15.787zM682.667 159.996c-14.080 0-27.733 5.547-37.547 15.787-10.24 9.813-15.787 23.467-15.787 37.547s5.547 27.733 15.787 37.547c19.627 20.053 55.467 20.053 75.093 0 10.24-9.813 15.787-23.467 15.787-37.547s-5.547-27.733-15.787-37.547c-9.813-10.24-23.467-15.787-37.547-15.787zM618.667 714.667h-213.333c-17.493 0-32 14.507-32 32s14.507 32 32 32h213.333c17.493 0 32-14.507 32-32s-14.507-32-32-32z" />
<glyph unicode="&#xe926;" glyph-name="Arrow-short-right" d="M1017.173 480.078c-4.062 10.475-10.155 20.044-17.92 28.16l-426.667 426.666c-7.956 7.956-17.402 14.268-27.797 18.574s-21.537 6.522-32.789 6.522c-22.724 0-44.518-9.027-60.587-25.096-7.956-7.956-14.268-17.402-18.574-27.797s-6.522-21.537-6.522-32.789c0-22.724 9.027-44.518 25.096-60.587l281.6-280.747h-647.68c-22.632 0-44.337-8.991-60.34-24.994s-24.994-37.708-24.994-60.339c0-22.632 8.99-44.337 24.994-60.34s37.708-24.993 60.34-24.993h647.68l-281.6-280.748c-7.998-7.936-14.346-17.374-18.679-27.767-4.332-10.402-6.563-21.555-6.563-32.819s2.231-22.417 6.563-32.819c4.332-10.394 10.68-19.831 18.679-27.767 7.933-7.996 17.37-14.345 27.769-18.679s21.553-6.562 32.817-6.562c11.265 0 22.419 2.227 32.817 6.562s19.837 10.684 27.769 18.679l426.667 426.668c7.765 8.115 13.858 17.685 17.92 28.16 8.533 20.775 8.533 44.078 0 64.853z" />
<glyph unicode="&#xe927;" glyph-name="Arrow-lonng-right" d="M1017.173 480.078c-4.062 10.475-10.155 20.044-17.92 28.16l-426.667 426.666c-7.956 7.956-17.402 14.268-27.797 18.574s-21.537 6.522-32.789 6.522c-22.724 0-44.518-9.027-60.587-25.096-7.956-7.956-14.268-17.402-18.574-27.797s-6.522-21.537-6.522-32.789c0-22.724 9.027-44.518 25.096-60.587l281.6-280.747h-647.68c-22.632 0-44.337-8.991-60.34-24.994s-24.994-37.708-24.994-60.339c0-22.632 8.99-44.337 24.994-60.34s37.708-24.993 60.34-24.993h647.68l-281.6-280.748c-7.998-7.936-14.346-17.374-18.679-27.767-4.332-10.402-6.563-21.555-6.563-32.819s2.231-22.417 6.563-32.819c4.332-10.394 10.68-19.831 18.679-27.767 7.933-7.996 17.37-14.345 27.769-18.679s21.553-6.562 32.817-6.562c11.265 0 22.419 2.227 32.817 6.562s19.837 10.684 27.769 18.679l426.667 426.668c7.765 8.115 13.858 17.685 17.92 28.16 8.533 20.775 8.533 44.078 0 64.853z" />
<glyph unicode="&#xe928;" glyph-name="airplane" d="M366.090-2.138c-9.387 0-19.2 1.707-28.16 5.547-20.053 8.533-35.413 25.173-42.24 46.080l-18.773 56.32c-8.533 25.6-0.853 57.6 17.92 76.8l96.853 97.28c1.28 1.28 2.987 5.973 2.987 8.107v105.387l-194.56-84.053c-26.027-11.093-52.48-9.813-72.533 3.413s-32 37.12-32 64.853v55.040c0 41.813 29.867 86.613 67.84 101.548l230.827 99.84v121.173c0 51.627 36.265 110.933 82.345 134.827 22.187 11.093 47.787 11.093 69.547 0 46.507-23.893 82.773-82.773 82.773-134.4v-121.173l232.107-99.84c37.973-16.215 66.987-59.735 66.987-101.975v-55.040c0-28.16-11.52-51.627-32-64.853s-46.507-14.507-72.533-3.84l-194.56 84.053v-105.387c0-1.707 1.707-5.973 2.987-7.253l97.28-97.707c18.773-18.773 26.453-51.627 17.92-76.8l-18.773-56.32c-7.253-20.907-22.613-37.547-43.093-45.653-20.053-8.107-42.24-7.253-61.44 2.133-2.133 1.28-4.267 2.56-6.4 4.267l-99.413 83.627c-3.413 2.987-10.24 2.56-13.227 0l-99.412-83.627c-1.707-1.707-3.84-2.987-5.973-3.84-10.24-5.973-21.76-8.533-33.28-8.533zM407.904 463.356c9.813 0 19.198-2.56 27.305-8.107 14.933-9.813 23.467-26.453 23.467-46.080v-121.6c0-18.347-8.96-40.107-21.76-52.907l-96.852-97.28c-1.707-2.133-3.413-8.533-2.56-11.093l18.773-56.747c1.28-4.267 4.267-5.973 5.973-6.827 1.28-0.427 3.413-1.28 5.973-0.427l95.572 80.64c26.88 23.040 69.12 23.040 96 0l95.147-80.213c2.987-0.427 5.12 0 6.4 0.427 1.707 0.853 5.12 2.56 6.4 6.827l18.773 56.32c0.853 2.987-0.853 9.387-2.56 11.093l-96.853 97.28c-12.8 11.947-22.187 34.133-22.187 52.907v121.6c0 19.2 8.107 35.84 22.613 45.653s33.28 11.093 51.2 3.413l209.92-90.453c6.4-2.56 10.667-2.56 11.947-1.707s2.987 4.693 2.987 11.52v55.040c0 16.213-13.653 37.12-28.16 43.093l-238.080 102.828c-18.773 8.107-32 28.587-32 49.067v128c0 28.16-22.187 64.427-47.787 77.227-3.413 1.707-7.68 1.707-11.52 0-24.747-12.8-47.36-49.92-47.36-77.653v-128c0-20.053-13.227-40.96-32-49.067l-238.079-102.828c-14.933-5.973-28.587-26.88-28.587-42.667v-55.040c0-6.827 1.707-10.667 2.987-11.52s5.547-0.853 11.947 1.707l209.493 90.453c7.68 3.413 15.787 5.12 23.467 5.12z" />
<glyph unicode="&#xe929;" glyph-name="phone-call-mini" d="M790.756 21.333c-386.844 0-705.422 318.578-705.422 705.422 0 17.067 0 34.133 0 51.2 0 22.756 0 39.822 11.378 56.889 11.378 11.378 22.756 22.756 39.822 34.133 17.067 5.689 34.133 5.689 56.889 5.689h119.467c22.756 0 34.133 0 51.2-5.689 11.378-5.689 22.756-11.378 34.133-22.756s17.067-22.756 22.756-45.511l51.2-136.533c5.689-22.756 11.378-34.133 11.378-56.889 0-17.067-5.689-28.444-17.067-45.511-11.378-11.378-22.756-17.067-45.511-28.444l-22.756-17.067c45.511-79.644 108.089-142.222 182.044-182.044l17.067 22.756c11.378 22.756 22.756 34.133 34.133 45.511s28.444 17.067 45.511 17.067c17.067 0 34.133-5.689 51.2-11.378l136.533-51.2c17.067-5.689 34.133-11.378 45.511-22.756s17.067-22.756 22.756-34.133c5.689-17.067 5.689-28.444 5.689-51.2v-119.467c0-22.756 0-39.822-5.689-56.889s-17.067-28.444-34.133-39.822c-17.067-11.378-34.133-11.378-56.889-11.378-17.067 0-34.133 0-51.2 0zM193.422 789.333c-5.689 0-17.067 0-22.756 0 0 0 0-11.378 0-17.067 0-17.067 0-28.444 0-45.511 0-341.333 278.756-620.089 620.089-620.089 17.067 0 28.444 0 45.511 0 5.689 0 17.067 0 17.067 0s0 11.378 0 22.756v119.467c0 11.378 0 17.067 0 17.067s-5.689 0-17.067 5.689l-136.533 51.2c-11.378 5.689-17.067 5.689-22.756 5.689 0 0-5.689-11.378-11.378-17.067l-34.133-56.889c-11.378-17.067-34.133-28.444-56.889-17.067-119.467 56.889-216.178 153.6-273.067 278.756-11.378 17.067 0 45.511 17.067 56.889l56.889 34.133c11.378 0 17.067 5.689 22.756 11.378 0 0-5.689 11.378-5.689 17.067l-51.2 136.533c-5.689 11.378-5.689 17.067-11.378 17.067 0 0-5.689 0-17.067 0h-119.467zM768 493.511c-22.756 0-39.822 11.378-39.822 34.133-5.689 34.133-22.756 62.578-45.511 85.333s-56.889 39.822-85.333 45.511c-28.444 5.689-45.511 28.444-39.822 51.2s28.444 39.822 51.2 34.133c51.2-5.689 96.711-34.133 130.844-68.267s62.578-79.644 68.267-130.844c5.689-22.756-11.378-45.511-34.133-51.2 0 0-5.689 0-5.689 0zM938.667 493.511c-22.756 0-39.822 17.067-39.822 39.822-11.378 73.956-45.511 147.911-102.4 199.111s-125.156 91.022-204.8 96.711c-22.756 0-39.822 22.756-39.822 45.511s22.756 39.822 45.511 39.822c96.711-11.378 187.733-51.2 256-119.467s113.778-159.289 125.156-256c5.689-22.756-11.378-45.511-39.822-45.511 5.689 0 0 0 0 0z" />
<glyph unicode="&#xe92a;" glyph-name="message-square-lines" d="M898.844 61.156c-5.689 0-11.378 0-17.067 5.689l-142.222 68.267c-11.378 5.689-11.378 5.689-17.067 5.689 0 0-5.689 0-5.689 0-5.689 0-11.378 0-17.067 0h-364.089c-79.644 0-119.467 0-153.6 17.067s-56.889 39.822-73.956 73.956c-22.756 45.511-22.756 85.333-22.756 164.978v187.733c0 79.644 0 119.467 17.067 153.6s39.822 56.889 73.956 73.956c34.133 17.067 73.956 17.067 153.6 17.067h358.4c79.644 0 119.467 0 153.6-17.067s56.889-39.822 73.956-73.956c17.067-34.133 17.067-73.956 17.067-153.6v-477.867c0-17.067-5.689-28.444-22.756-34.133 0-5.689-5.689-11.378-11.378-11.378zM335.644 743.822c-62.578 0-96.711 0-113.778-11.378-22.756-5.689-34.133-17.067-39.822-34.133-11.378-17.067-11.378-51.2-11.378-113.778v-187.733c0-62.578 0-96.711 11.378-113.778 5.689-17.067 22.756-28.444 39.822-39.822s51.2-11.378 113.778-11.378h358.4c17.067 0 22.756 0 28.444 0s17.067-5.689 22.756-5.689c5.689 0 11.378-5.689 22.756-11.378l85.333-39.822v409.6c0 62.578 0 96.711-11.378 113.778-5.689 17.067-22.756 28.444-39.822 39.822s-51.2 11.378-113.778 11.378h-352.711zM512 362.667h-216.178c-22.756 0-45.511 17.067-45.511 45.511s22.756 39.822 45.511 39.822h216.178c22.756 0 45.511-17.067 45.511-45.511s-22.756-39.822-45.511-39.822zM728.178 533.333h-432.356c-22.756 0-45.511 17.067-45.511 45.511s22.756 39.822 45.511 39.822h426.667c22.756 0 45.511-17.067 45.511-45.511s-17.067-39.822-39.822-39.822z" />
</font>
</defs>
</svg>
